Charmed S03 480i DVD REMUX MPEG-2 DD2 0

DOWNLOAD TORRENT DOWNLOAD DOWNLOAD ANONYMOUS

Posted on May 20, 2017 in Series » Misc

Size: 35.6 GB , Seeds: 1 , Peers: 3 ( Updated May 26, 2017 - Refresh )

* Download via Magnet Link , * To download files you need a Bittorrent Client , * How to download torrents from Bit Torrent Scene?

Loading...

Scrape History ( seeds + peers )

Internal Files

Charmed.S03.480i.DVD.REMUX.MPEG-2.DD2.0
Charmed.S03E01.The.Honeymoons.Over.480i.DVD.REMUX.MPEG-2.DD2.0.mkv   1.62 GB
Charmed.S03E02.Magic.Hour.480i.DVD.REMUX.MPEG-2.DD2.0.mkv   1.67 GB
Charmed.S03E03.Once.Upon.a.Time.480i.DVD.REMUX.MPEG-2.DD2.0.mkv   1.66 GB
Charmed.S03E04.All.Halliwells.Eve.480i.DVD.REMUX.MPEG-2.DD2.0.mkv   1.61 GB
Charmed.S03E05.Sight.Unseen.480i.DVD.REMUX.MPEG-2.DD2.0.mkv   1.66 GB
Charmed.S03E06.Primrose.Empath.480i.DVD.REMUX.MPEG-2.DD2.0.mkv   1.65 GB
Charmed.S03E07.Power.Outage.480i.DVD.REMUX.MPEG-2.DD2.0.mkv   1.62 GB
Charmed.S03E08.Sleuthing.with.the.Enemy.480i.DVD.REMUX.MPEG-2.DD2.0.mkv   1.64 GB
Charmed.S03E09.Coyote.Piper.480i.DVD.REMUX.MPEG-2.DD2.0.mkv   1.6 GB
Charmed.S03E10.We.All.Scream.for.Ice.Cream.480i.DVD.REMUX.MPEG-2.DD2.0.mkv   1.58 GB
Charmed.S03E11.Blinded.by.the.Whitelighter.480i.DVD.REMUX.MPEG-2.DD2.0.mkv   1.62 GB
Charmed.S03E12.Wrestling.with.Demons.480i.DVD.REMUX.MPEG-2.DD2.0.mkv   1.63 GB
Charmed.S03E13.Bride.and.Gloom.480i.DVD.REMUX.MPEG-2.DD2.0.mkv   1.67 GB
Charmed.S03E14.The.Good.the.Bad.and.the.Cursed.480i.DVD.REMUX.MPEG-2.DD2.0.mkv   1.6 GB
Charmed.S03E15.Just.Harried.480i.DVD.REMUX.MPEG-2.DD2.0.mkv   1.59 GB
Charmed.S03E16.Death.Takes.a.Halliwell.480i.DVD.REMUX.MPEG-2.DD2.0.mkv   1.61 GB
Charmed.S03E17.Pre-Witched.480i.DVD.REMUX.MPEG-2.DD2.0.mkv   1.64 GB
Charmed.S03E18.Sin.Francisco.480i.DVD.REMUX.MPEG-2.DD2.0.mkv   1.6 GB
Charmed.S03E19.The.Demon.Who.Came.In.from.the.Cold.480i.DVD.REMUX.MPEG-2.DD2.0.mkv   1.55 GB
Charmed.S03E20.Exit.Strategy.480i.DVD.REMUX.MPEG-2.DD2.0.mkv   1.61 GB
Charmed.S03E21.Look.Whos.Barking.480i.DVD.REMUX.MPEG-2.DD2.0.mkv   1.56 GB
Charmed.S03E22.All.Hell.Breaks.Loose.480i.DVD.REMUX.MPEG-2.DD2.0.mkv   1.6 GB

Hash Code

57b61a94ac1662c0042d3fc25b2dcca0b1374388

Description

General

Unique ID : 307078030982668875132216815825599660520 (0xE70513D7E95DA6A82CED752C02FD01E8)

Complete name : Charmed.S03E01.The.Honeymoons.Over.480i.DVD.REMUX.MPEG-2.DD2.0.mkv

Format : Matroska

Format version : Version 4 / Version 2

File size : 1.62 GiB

Duration : 43mn 9s

Overall bit rate mode : Variable

Overall bit rate : 5 368 Kbps

Encoded date : UTC 2017-04-29 16:39:33

Writing application : mkvmerge v11.0.0 ('Alive') 64bit

Writing library : libebml v1.3.4 + libmatroska v1.4.5

DURATION : 00:42:24.940000000

NUMBER_OF_FRAMES : 981

NUMBER_OF_BYTES : 70244

_STATISTICS_WRITING_APP : mkvmerge v11.0.0 ('Alive') 64bit

_STATISTICS_WRITING_DATE_UTC : 2017-04-29 16:39:33

_STATISTICS_TAGS : BPS DURATION NUMBER_OF_FRAMES NUMBER_OF_BYTES


Video

ID : 1

Format : MPEG Video

Format version : Version 2

Format profile : [email protected]/* */

Format settings, BVOP : No

Format settings, Matrix : Custom

Format settings, picture structure : Frame

Codec ID : V_MPEG2

Codec ID/Info : MPEG 1 or 2 Video

Duration : 43mn 9s

Bit rate mode : Variable

Bit rate : 4 877 Kbps

Maximum bit rate : 9 800 Kbps

Width : 720 pixels

Height : 480 pixels

Display aspect ratio : 4:3

Frame rate mode : Constant

Frame rate : 29.970 fps

Standard : NTSC

Color space : YUV

Chroma subsampling : 4:2:0

Bit depth : 8 bits

Scan type : Interlaced

Scan order : Top Field First

Compression mode : Lossy

Bits/(Pixel*Frame) : 0.471

Time code of first frame : 00:00:00:00

Time code source : Group of pictures header

Stream size : 1.47 GiB (91%)

Title : MPEG-2 Video / 4981 kbps / 480i / 29.970 fps / 4:3

Default : Yes

Forced : No

DURATION : 00:43:09.987000000

NUMBER_OF_FRAMES : 77622

NUMBER_OF_BYTES : 1612568849

_STATISTICS_WRITING_APP : mkvmerge v11.0.0 ('Alive') 64bit

_STATISTICS_WRITING_DATE_UTC : 2017-04-29 16:39:33

_STATISTICS_TAGS : BPS DURATION NUMBER_OF_FRAMES NUMBER_OF_BYTES


Audio #1

ID : 2

Format : AC-3

Format/Info : Audio Coding 3

Mode extension : CM (complete main)

Format settings, Endianness : Big

Codec ID : A_AC3

Duration : 43mn 9s

Bit rate mode : Constant

Bit rate : 192 Kbps

Channel(s) : 2 channels

Channel positions : Front: L R

Sampling rate : 48.0 KHz

Bit depth : 16 bits

Compression mode : Lossy

Stream size : 59.3 MiB (4%)

Title : Dolby Digital Audio / 2.0 / 48 kHz / 192 kbps

Language : English

Default : Yes

Forced : No

DURATION : 00:43:09.792000000

NUMBER_OF_FRAMES : 80931

NUMBER_OF_BYTES : 62155008

_STATISTICS_WRITING_APP : mkvmerge v11.0.0 ('Alive') 64bit

_STATISTICS_WRITING_DATE_UTC : 2017-04-29 16:39:33

_STATISTICS_TAGS : BPS DURATION NUMBER_OF_FRAMES NUMBER_OF_BYTES


Audio #2

ID : 3

Format : AC-3

Format/Info : Audio Coding 3

Mode extension : CM (complete main)

Format settings, Endianness : Big

Codec ID : A_AC3

Duration : 43mn 9s

Bit rate mode : Constant

Bit rate : 192 Kbps

Channel(s) : 2 channels

Channel positions : Front: L R

Sampling rate : 48.0 KHz

Bit depth : 16 bits

Compression mode : Lossy

Stream size : 59.3 MiB (4%)

Title : Dolby Digital Audio / 2.0 / 48 kHz / 192 kbps

Language : French

Default : No

Forced : No

DURATION : 00:43:09.792000000

NUMBER_OF_FRAMES : 80931

NUMBER_OF_BYTES : 62155008

_STATISTICS_WRITING_APP : mkvmerge v11.0.0 ('Alive') 64bit

_STATISTICS_WRITING_DATE_UTC : 2017-04-29 16:39:33

_STATISTICS_TAGS : BPS DURATION NUMBER_OF_FRAMES NUMBER_OF_BYTES


Text

ID : 4

Format : ASS

Codec ID : S_TEXT/ASS

Codec ID/Info : Advanced Sub Station Alpha

Compression mode : Lossless

Title : CC

Language : English

Default : No

Forced : No


Menu

00:00:00.000 : en:Chapter 01

00:07:11.964 : en:Chapter 02

00:20:09.007 : en:Chapter 03

00:26:39.998 : en:Chapter 04

00:35:39.003 : en:Chapter 05

00:42:30.014 : en:Chapter 06

Torrent location

https://www.1337x.to/torrent/2219748/Charmed-S03-480i-DVD-REMUX-MPEG-2-DD2-0/

Trackers

Refresh Leechers : Updated May 26, 2017

1. http://explodie.org:6969/announce

2. http://tracker.tfile.me/announce

3. http://bigfoot1942.sektori.org:6969/announce

4. http://tracker2.wasabii.com.tw:6969/announce

5. http://tracker.mg64.net:6881/announce

6. http://bt.artvid.ru:6969/announce

7. http://tracker1.wasabii.com.tw:6969/announce

8. http://open.acgtracker.com:1096/announce

9. http://tracker.opentrackr.org/announce

10. http://mvgroup.org:2710/announce

11. udp://mgtracker.org:6969/announce

12. udp://asnet.pw:2710/announce

13. udp://tracker.mgtracker.org:2710/announce

14. udp://tracker4.piratux.com:6969/announce

15. udp://tracker.trackerfix.com:80/announce

16. udp://tracker.pomf.se:80/announce

17. udp://torrent.gresille.org:80/announce

18. udp://p4p.arenabg.com:1337

19. udp://ipv4.tracker.harry.lu:80/announce

20. udp://inferno.demonoid.ooo:3389/announce

21. udp://tracker.blackunicorn.xyz:6969/announce

22. udp://tracker.internetwarriors.net:1337/announce

23. udp://tracker.openbittorrent.com:80/announce

24. udp://eddie4.nl:6969/announce

25. udp://tracker.leechers-paradise.org:6969/announce

26. udp://tracker.opentrackr.org:1337/announce

27. udp://tracker.zer0day.to:1337/announce

28. udp://p4p.arenabg.ch:1337/announce

29. udp://tracker.coppersurfer.tk:6969/announce

30. udp://9.rarbg.to:2710/announce

31. udp://9.rarbg.com:2710/announce

32. udp://9.rarbg.me:2710/announce

33. udp://open.demonii.com:1337

34. udp://glotorrents.pw:6969/announce

35. udp://tracker.coppersurfer.tk:6969/announce

Comments

You must log in to add a comment.

Embed Code

Sharing Widget

Top Series ( auto generated report )

FILENAME SIZE SEEDS PEERS ADDED UPD
[i] Prison.Break.S05E08.HDTV.x264-KILLERS[ettv] 287.56 MB 4767 377 6 days 9 hours
[i] Silicon.Valley.S04E06.HDTV.x264-SVA[ettv] 158.69 MB 3361 598 1 day 8 hours
[i] The.100.S04E13.HDTV.x264-SVA[ettv] 366.5 MB 3101 762 5 days 4 days
[i] The.Flash.2014.S03E23.PROPER.HDTV.x264-KILLERS[ettv] 249.77 MB 2714 374 6 days 5 hours
[i] Doctor.Who.2005.S10E07.HDTV.x264-MTB[ettv] 288.5 MB 2146 367 2 days 1 day
[i] Lucifer.S02E18.720p.HDTV.x264-AVS[eztv].mkv 1.26 GB 2039 1770 7 hours 4 hours
[i] American.Gods.S01E05.720p.WEBRip.X264-DEFLATE[ettv] 1.81 GB 2018 941 2 days 1 day
[i] Fargo.S03E06.HDTV.x264-FLEET[ettv] 197.58 MB 1840 126 5 days 1 day
[i] Wentworth.S05E08.HDTV.x264-KCRT[ettv] 379.07 MB 979 52 6 days 2 hours
[i] UFC.Fight.Night.109.720p.HDTV.x264-KYR 4.53 GB 1656 838 1 day 15 hours