Hells Kitty 2018 HDRip AC3 5 1 x264

Posted by moviefreak •1669 on March 13, 2018 in Movies » Horror , verified torrent

Size: 907.32 MB , Seeds: 0 , Peers: 2 ( Updated June 20, 2018 )

* Download via Magnet Link , * To download files you need a Bittorrent Client , * How to download torrents from Bit Torrent Scene?

Scrape History ( seeds + peers )

Internal Files

Hells Kitty 2018 HDRip AC3 5.1 x264
Hells Kitty 2018 HDRip AC3 5.1 x264.mkv   907.32 MB

Hash Code

5815ab5a13c87236908178a6ce58eb3360c2b05b

Description


SCREENSHOT


General
Format : Matroska
Format version : Version 4 / Version 2
File size : 907 MiBa
Duration : 1 h 37 min
Overall bit rate : 1 297 kb/s

Video
ID : 1
Format : AVC
Format/Info : Advanced Video Codec
Format profile : [email protected]
Format settings : CABAC / 4 Ref Frames
Format settings, CABAC : Yes
Format settings, RefFrames : 4 frames
Codec ID : V_MPEG4/ISO/AVC
Duration : 1 h 37 min
Bit rate : 900 kb/s
Width : 720 pixels
Height : 400 pixels
Display aspect ratio : 16:9
Frame rate mode : Constant
Frame rate : 23.976 (24000/1001) FPS
Color space : YUV
Chroma subsampling : 4:2:0
Bit depth : 8 bits
Scan type : Progressive
Bits/(Pixel*Frame) : 0.130
Stream size : 638 MiB (70%)
Writing library : x264 core 148 r2708 86b7198
Default : Yes
Forced : No

Audio
ID : 2
Format : AC-3
Format/Info : Audio Coding 3
Codec ID : A_AC3
Duration : 1 h 37 min
Bit rate mode : Constant
Bit rate : 384 kb/s
Channel(s) : 6 channels
Channel positions : Front: L C R, Side: L R, LFE
Sampling rate : 48.0 kHz
Frame rate : 31.250 FPS (1536 SPF)
Bit depth : 16 bits
Compression mode : Lossy
Stream size : 269 MiB (30%)
Language : English
Service kind : Complete Main
Default : Yes
Forced : No





https://pichub.site/image/fnBLD
https://pichub.site/image/fnmdg
https://pichub.site/image/fnKFZ
https://pichub.site/image/fnuGI
https://pichub.site/image/fnG3X

Trackers

Refresh Leechers : Updated June 20, 2018

1. udp://tracker.pirateparty.gr:6969/announce

2. udp://tracker.opentrackr.org:1337/announce

3. http://tracker.opentrackr.org/announce

4. udp://tracker.vanitycore.co:6969/announce

5. udp://public.popcorn-tracker.org:6969/announce

6. udp://9.rarbg.to:2710/announce

7. udp://9.rarbg.me:2710/announce

8. udp://9.rarbg.com:2770/announce

9. udp://inferno.demonoid.pw:3391/announce

10. udp://tracker.internetwarriors.net:1337/announce

11. udp://ipv4.tracker.harry.lu:80/announce

12. udp://p4p.arenabg.ch:1337/announce

13. http://tracker.vanitycore.co:6969/announce

14. http://public.popcorn-tracker.org:6969/announce

15. udp://tracker.zer0day.to:1337/announce

Comments

You must log in to add a comment.

Embed Code

Sharing Widget

Related torrents

FILENAME SIZE SEEDS PEERS ADDED UPD
[i] Hells Kitty 2018.HDRip.XviD.AC3-EVO[EtMovies] 1.39 GB 2 0 3 months 1 day
[i] Hells Kitty 2018.HDRip.XviD.AC3-EVO 1.39 GB 2 0 3 months 1 day
[i] Hells Kitty 2018 HDRip AC3 X264-CMRG.[N1C] 1.37 GB 0 3 3 months 1 day
[i] Hells Kitty 2018.HDRip.XviD.AC3-EVO[N1C] 1.38 GB 0 0 3 months 1 day
[i] Hells Kitty 2018 HDRip AC3 X264-CMRG 1.37 GB 0 0 3 months 1 day
[i] Hells.Kitty.2018.HDRip.AC3.X264-CMRG 1.38 GB 0 0 3 months 1 day

Top Movies ( auto generated report )

FILENAME SIZE SEEDS PEERS ADDED UPD
[i] Rampage (2018) [WEBRip] [720p] [YTS AM] 924.3 MB 13992 12685 2 days 1 day
[i] Rampage (2018) [WEBRip] [1080p] [YTS AM] 1.73 GB 11810 9729 2 days 1 day
[i] Ready Player One (2018) [WEBRip] [1080p] [YTS AM] 2.24 GB 10675 6116 2 days 1 day
[i] Ready Player One (2018) [WEBRip] [720p] [YTS AM] 1.16 GB 9167 6479 2 days 1 day
[i] Escape Plan 2 Hades (2018) [BluRay] [720p] [YTS AM] 821.12 MB 6877 4793 4 days 3 days
[i] Escape Plan 2 Hades (2018) [BluRay] [1080p] [YTS AM] 1.52 GB 4347 2178 4 days 3 days
[i] Blockers (2018) [WEBRip] [720p] [YTS AM] 861.94 MB 4304 4432 13 hours 11 hours
[i] Life of the Party (2018) [WEBRip] [720p] [YTS AM] 886.77 MB 3245 2104 2 days 1 day
[i] Blockers (2018) [WEBRip] [1080p] [YTS AM] 1.62 GB 2958 2345 13 hours 11 hours
[i] The Death of Superman (2018) [WEBRip] [720p] [YTS AM] 690.36 MB 2300 1288 2 days 1 day