Your IP Address is . Location is Your ISP and Government can track your torrent activity! Hide your IP with a VPN!

Madame 2017 720p WEB-DL DD5 1 H264 ESub

DOWNLOAD TORRENT DOWNLOAD DOWNLOAD ANONYMOUS

Posted by LifeLongg •178 on December 7, 2017 in Movies » Drama , verified torrent

Size: 1.35 GB , Seeds: 5 , Peers: 4 ( Updated December 8, 2017 - Refresh )

* Download via Magnet Link , * To download files you need a Bittorrent Client , * How to download torrents from Bit Torrent Scene?

Scrape History ( seeds + peers )

Internal Files

Madame.2017.720p.WEB-DL.DD5.1.H264.ESub
1.jpg   70.81 KB
English.srt   103.98 KB
Sample.ts   20.05 MB
Madame.2017.720p.WEB-DL.DD5.1.H264.ESub.mp4   1.33 GB

Hash Code

de3f8351bccc8c45d705f9fc13a10d9f3f409f0b

Description

******************************Thumbnail:**********************

SCREENSHOT

******************************Screenshots:********************

Screen 1


Screen 2


Screen 3


Screen 4


Screen 5

****************************************************************

General
Complete name : Madame.2017.720p.WEB-DL.DD5.1.H264.ESub.mp4
Format : MPEG-4
Format profile : Base Media
Codec ID : isom (isom/iso2/avc1/mp41)
File size : 1.33 GiB
Duration : 1 h 31 min
Overall bit rate : 2 094 kb/s
Writing application : Lavf57.56.101

Video
ID : 1
Format : AVC
Format/Info : Advanced Video Codec
Format profile : [email protected]
Format settings : CABAC / 4 Ref Frames
Format settings, CABAC : Yes
Format settings, RefFrames : 4 frames
Codec ID : avc1
Codec ID/Info : Advanced Video Coding
Duration : 1 h 31 min
Bit rate : 2 000 kb/s
Width : 1 280 pixels
Height : 536 pixels
Display aspect ratio : 2.40:1
Frame rate mode : Constant
Frame rate : 24.000 FPS
Color space : YUV
Chroma subsampling : 4:2:0
Bit depth : 8 bits
Scan type : Progressive
Bits/(Pixel*Frame) : 0.121
Stream size : 1.25 GiB (94%)
Language : English

Audio
ID : 2
Format : AC-3
Format/Info : Audio Coding 3
Codec ID : ac-3
Duration : 1 h 31 min
Bit rate mode : Constant
Bit rate : 128 kb/s
Channel(s) : 2 channels
Channel positions : Front: L R
Sampling rate : 48.0 kHz
Frame rate : 31.250 FPS (1536 SPF)
Bit depth : 16 bits
Compression mode : Lossy
Stream size : 83.5 MiB (6%)
Language : English
Service kind : Complete Main
Default : Yes
Alternate group : 1

Trackers

Refresh Leechers : Updated December 8, 2017

1. udp://tracker.openbittorrent.com:80/announce

2. udp://tracker.opentrackr.org:1337/announce

Comments

You must log in to add a comment.

Embed Code

Sharing Widget

Top Movies ( auto generated report )

FILENAME SIZE SEEDS PEERS ADDED UPD
[i] The Mountain Between Us (2017) [720p] [YTS AG] 816.25 MB 5646 2920 3 days 1 day
[i] l-experience-interdite-flatliners-french-dvdrip-2017.torrent 700.65 MB 5171 851 2 days 1 day
[i] The Mountain Between Us (2017) [1080p] [YTS AG] 1.7 GB 3703 1416 3 days 12 hours
[i] Flatliners (2017) [720p] [YTS AG] 807.91 MB 2908 1454 3 days 1 hour
[i] Flatliners (2017) [1080p] [YTS AG] 1.67 GB 1938 794 3 days 5 hours
[i] Beyond.Skyline.2017.WEB-DL.x264-FGT [rarbg] 929.15 MB 1416 442 2 days 3 hours
[i] The.Snowman.2017.HC.WEBRip.x264-STUTTERSHIT[rarbg] 1.02 GB 623 128 6 days 37 min
[i] M F A (2017) [720p] [YTS AG] 672.56 MB 1648 773 1 day 13 hours
[i] Stronger (2017) [720p] [YTS AG] 865.1 MB 1528 329 1 week 1 day
[i] Victoria & Abdul (2017) [720p] [YTS AG] 812.01 MB 1305 334 1 week 1 day