Oceans 8 2018 720p HD-TS X264 MP3 LLG

DOWNLOAD TORRENT DOWNLOAD DOWNLOAD ANONYMOUS

Posted by LifeLongg •809 on June 13, 2018 in Movies » Action , verified torrent

Size: 1.21 GB , Seeds: 94 , Peers: 62 ( Updated June 14, 2018 - Refresh )

* Download via Magnet Link , * To download files you need a Bittorrent Client , * How to download torrents from Bit Torrent Scene?

Scrape History ( seeds + peers )

Internal Files

Oceans.8.2018.720p.HD-TS.X264.MP3.LLG
Sample.ts   20.59 MB
Oceans.8.2018.720p.HD-TS.X264.MP3.LLG.mp4   1.19 GB

Hash Code

716158a96938fdbc65623dc80604f29757085282

Description

******************************Thumbnail:**********************

SCREENSHOT

******************************Screenshots:********************

Screenshot 1

Screenshot 2

Screenshot 3

Screenshot 4

Screenshot 5

Screenshot 6

Screenshot 7

Screenshot 8

Screenshot 9

Screenshot 0

**************************************************************

Complete name : Oceans.8.2018.720p.HD-TS.X264.MP3.LLG.mp4
Format : MPEG-4
Format profile : Base Media
Codec ID : isom (isom/iso2/avc1/mp41)
File size : 1.19 GiB
Duration : 1 h 43 min
Overall bit rate : 1 637 kb/s
Writing application : Lavf57.56.101

Video
ID : 1
Format : AVC
Format/Info : Advanced Video Codec
Format profile : [email protected]
Format settings : CABAC / 4 Ref Frames
Format settings, CABAC : Yes
Format settings, RefFrames : 4 frames
Codec ID : avc1
Codec ID/Info : Advanced Video Coding
Duration : 1 h 43 min
Bit rate : 1 500 kb/s
Width : 1 280 pixels
Height : 536 pixels
Display aspect ratio : 2.40:1
Frame rate mode : Constant
Frame rate : 23.976 (23976/1000) FPS
Color space : YUV
Chroma subsampling : 4:2:0
Bit depth : 8 bits
Scan type : Progressive
Bits/(Pixel*Frame) : 0.091
Stream size : 1.09 GiB (92%)


Audio
ID : 2
Format : MPEG Audio
Format version : Version 1
Format profile : Layer 3
Format settings : Joint stereo / MS Stereo
Codec ID : mp4a-6B
Duration : 1 h 43 min
Bit rate mode : Constant
Bit rate : 128 kb/s
Channel(s) : 2 channels
Sampling rate : 44.1 kHz
Compression mode : Lossy
Stream size : 94.9 MiB (8%)
Writing library : LAME3.99.5
Default : Yes
Alternate group : 1

Trackers

Refresh Leechers : Updated June 14, 2018

1. udp://tracker.openbittorrent.com:80/announce

2. udp://tracker.opentrackr.org:1337/announce

Comments

You must log in to add a comment.

Embed Code

Sharing Widget

Related torrents

FILENAME SIZE SEEDS PEERS ADDED UPD
[i] Oceans 8 (2018 ) 720p HD-TS X264-CPG mkv [MOVCR] mp4
posted by Tamilgun in Movies - Action
910.04 MB 173 133 4 days 3 days
[i] Oceans 8 2018 720p HD-TS X264 ENG LLG
posted by LifeLongg in Movies - Action
1.02 GB 72 59 3 days 2 days
[i] Oceans 8 2018 720p HD-TS x264 AAC [MW]
posted by moviefreak in Movies - Action
985.67 MB 57 46 4 days 3 days
[i] Oceans 8 2018 720p HDTS X264 CPG 2.3 GB 12 37 4 days 4 days
[i] Oceans 8 2018 720p HD-TS X264-CPG 2.3 GB 0 0 4 days 4 days
[i] Oceans 8 2018 720p TS HEVC x265-RMTeam 539.8 MB 0 0 4 days 4 days

Top Movies ( auto generated report )

FILENAME SIZE SEEDS PEERS ADDED UPD
Race 3 (2018) Hindi - PDVDrip - x264 - AAC - 800MB [MOVCR] mkv 809.2 MB 1662 616 2 days 9 hours
[i] Acrimony (2018) [WEBRip] [720p] [YTS AM] 1017.95 MB 1692 1180 3 days 2 days
[i] The Lost Viking (2018) [WEBRip] [720p] [YTS AM] 933.62 MB 1262 792 3 days 2 days
[i] Avengers Infinity War 2018 HDTS XViD AC3-ETRG 1.44 GB 1080 650 3 days 1 day
[i] Acrimony (2018) [WEBRip] [1080p] [YTS AM] 1.92 GB 1059 612 3 days 2 days
[i] Lost in London (2017) [WEBRip] [720p] [YTS AM] 872.85 MB 1032 290 3 days 2 days
[i] 7 Days in Entebbe (2018) [WEBRip] [720p] [YTS AM] 915.41 MB 919 357 3 days 1 day
[i] Lost in London (2017) [WEBRip] [1080p] [YTS AM] 1.65 GB 881 258 3 days 2 days
[i] Beyond The Sky (2018) [WEBRip] [720p] [YTS AM] 699.3 MB 874 417 3 days 2 days
[i] Skybound (2017) [WEBRip] [720p] [YTS AM] 688.86 MB 839 344 3 days 2 days