The.Babysitter.1995.720p.BluRay.x264-x0r[PRiME]

DOWNLOAD TORRENT DOWNLOAD DOWNLOAD ANONYMOUS

Posted on May 19, 2017 in Movies » Misc , verified torrent

Size: 1.72 GB , Seeds: 2 , Peers: 9 ( Updated May 20, 2017 - Refresh )

* Download via Magnet Link , * To download files you need a Bittorrent Client , * How to download torrents from Bit Torrent Scene?

Loading...

Scrape History ( seeds + peers )

Internal Files

The.Babysitter.1995.720p.BluRay.x264-x0r[PRiME]
Please Support!! Read More!!!.txt   334 Byte
The.Babysitter.1995.720p.BluRay.x264-x0r.fanart.jpg   88 KB
The.Babysitter.1995.720p.BluRay.x264-x0r.jpg   1.05 MB
The.Babysitter.1995.720p.BluRay.x264-x0r[PRiME].mkv   1.71 GB
The.Babysitter.1995.720p.BluRay.x264-x0r[TRAILER-Theatrical Trailer][PRiME].mp4   4.67 MB

Hash Code

444cee6c791a3a649d72712c141f4bbda5150c97

Description


The.Babysitter.1995.720p.BluRay.x264-x0r[PRiME]

ImDb: http://www.imdb.com/title/tt0112438

SCREENSHOT

Complete name : The.Babysitter.1995.720p.BluRay.x264-x0r[TRAILER-Theatrical Trailer][PRiME].mp4
Format : MPEG-4
Format profile : Base Media / Version 2
Codec ID : mp42 (isom/mp42)
File size : 4.67 MiB
Duration : 1 min 46 s
Overall bit rate mode : Variable
Overall bit rate : 367 kb/s
Encoded date : UTC 2016-02-21 16:53:45
Tagged date : UTC 2016-02-21 16:53:45

Video
ID : 1
Format : AVC
Format/Info : Advanced Video Codec
Format profile : [email protected]/* */
Format settings, CABAC : No
Format settings, ReFrames : 1 frame
Codec ID : avc1
Codec ID/Info : Advanced Video Coding
Duration : 1 min 46 s
Bit rate : 269 kb/s
Maximum bit rate : 839 kb/s
Width : 480 pixels
Height : 360 pixels
Display aspect ratio : 4:3
Frame rate mode : Constant
Frame rate : 23.976 (24000/1001) FPS
Color space : YUV
Chroma subsampling : 4:2:0
Bit depth : 8 bits
Scan type : Progressive
Bits/(Pixel*Frame) : 0.065
Stream size : 3.42 MiB (73%)
Encoded date : UTC 1904-01-01 00:00:00
Tagged date : UTC 2016-02-21 16:53:46

Audio
ID : 2
Format : AAC
Format/Info : Advanced Audio Codec
Format profile : LC
Codec ID : 40
Duration : 1 min 46 s
Bit rate mode : Variable
Bit rate : 96.0 kb/s
Maximum bit rate : 101 kb/s
Channel(s) : 2 channels
Channel positions : Front: L R
Sampling rate : 44.1 kHz
Frame rate : 43.066 FPS (1024 spf)
Compression mode : Lossy
Stream size : 1.22 MiB (26%)
Title : IsoMedia File Produced by Google, 5-11-2011
Language : English
Encoded date : UTC 2016-02-21 16:53:46
Tagged date : UTC 2016-02-21 16:53:46

SCREENSHOT

Click Image To View Full Size

SCREENSHOT
Click To View Screenshot
Click To View Screenshot
Click To View Screenshot

Torrent location

https://www.1337x.to/torrent/2219038/The-Babysitter-1995-720p-BluRay-x264-x0r-PRiME/

Trackers

Refresh Leechers : Updated May 20, 2017

1. http://explodie.org:6969/announce

2. http://tracker.tfile.me/announce

3. http://bigfoot1942.sektori.org:6969/announce

4. http://tracker2.wasabii.com.tw:6969/announce

5. http://tracker.mg64.net:6881/announce

6. http://bt.artvid.ru:6969/announce

7. http://tracker1.wasabii.com.tw:6969/announce

8. http://open.acgtracker.com:1096/announce

9. http://tracker.opentrackr.org/announce

10. http://mvgroup.org:2710/announce

11. udp://mgtracker.org:6969/announce

12. udp://asnet.pw:2710/announce

13. udp://tracker.mgtracker.org:2710/announce

14. udp://tracker4.piratux.com:6969/announce

15. udp://tracker.trackerfix.com:80/announce

16. udp://tracker.pomf.se:80/announce

17. udp://torrent.gresille.org:80/announce

18. udp://p4p.arenabg.com:1337

19. udp://ipv4.tracker.harry.lu:80/announce

20. udp://inferno.demonoid.ooo:3389/announce

21. udp://tracker.blackunicorn.xyz:6969/announce

22. udp://tracker.internetwarriors.net:1337/announce

23. udp://tracker.openbittorrent.com:80/announce

24. udp://eddie4.nl:6969/announce

25. udp://tracker.leechers-paradise.org:6969/announce

26. udp://tracker.opentrackr.org:1337/announce

27. udp://tracker.zer0day.to:1337/announce

28. udp://p4p.arenabg.ch:1337/announce

29. udp://tracker.coppersurfer.tk:6969/announce

30. udp://9.rarbg.to:2710/announce

31. udp://9.rarbg.com:2710/announce

32. udp://9.rarbg.me:2710/announce

33. udp://open.demonii.com:1337

34. udp://glotorrents.pw:6969/announce

35. udp://eddie4.nl:6969/announce

36. udp://explodie.org:6969/announce

37. udp://9.rarbg.me:2710/announce

38. udp://9.rarbg.to:2710/announce

39. udp://9.rarbg.com:2710/announce

40. udp://p4p.arenabg.com:1337/announce

41. udp://p4p.arenabg.ch:1337/announce

42. udp://ipv4.tracker.harry.lu:80/announce

43. udp://tracker.zer0day.to:1337/announce

44. udp://tracker.opentrackr.org:1337/announce

45. udp://tracker.leechers-paradise.org:6969/announce

46. udp://tracker.coppersurfer.tk:6969/announce

47. udp://tracker.ilibr.org:80/announce

48. udp://tracker.ilibr.org:6969/announce

Comments

You must log in to add a comment.

Embed Code

Sharing Widget

Top Movies ( auto generated report )

FILENAME SIZE SEEDS PEERS ADDED UPD
[i] Logan (2017) [1080p] [YTS AG] 2.09 GB 13881 12271 1 day 17 hours
[i] Beauty and the Beast (2017) [1080p] [YTS AG] 1.96 GB 12983 6378 4 days 13 hours
[i] Logan (2017) [720p] [YTS AG] 1014.33 MB 11484 11862 1 day 17 hours
[i] Beauty and the Beast (2017) [720p] [YTS AG] 947.05 MB 9879 5972 4 days 13 hours
[i] Beauty.And.The.Beast.2017.1080p.HDRip.X264.AC3-EVO[EtHD] 3.63 GB 2338 346 6 days 15 hours
[i] The.Fate.Of.The.Furious.2017.HC,HDRip.XViD.AC3-ETRG 1.41 GB 1028 436 6 days 11 hours
[i] Free.Fire.2016.1080p.WEB-DL.DD5.1.H264-FGT 3.11 GB 1640 1928 22 hours 20 hours
[i] The.Fate.of.the.Furious.2017.720p.KORSUB.HDRip.x264.AAC2.0-STUTTERSHIT 3.51 GB 1051 464 6 days 5 hours
[i] Kill'em All (2017) [720p] [YTS AG] 711.76 MB 1650 940 3 days 11 hours
[i] King Arthur and the Knights of the Round Table (2017) [720p] [YTS AG] 664.06 MB 1338 885 2 days 1 day