18+ Escorts 2015 480p WEBRip English AAC LLG

Posted by LifeLongg •984 on April 16, 2018 in Movies » Documentary , verified torrent

Size: 349.27 MB , Seeds: 0 , Peers: 1 ( Updated June 19, 2018 - Refresh )

* Download via Magnet Link , * To download files you need a Bittorrent Client , * How to download torrents from Bit Torrent Scene?

Scrape History ( seeds + peers )

Internal Files

18+.Escorts.2015.480p.WEBRip. English.AAC.LLG
Sample.mp4   7.72 MB
18+.Escorts.2015.480p.WEBRip. English.AAC.LLG.mp4   341.55 MB

Hash Code

9aaae4813a6b49c99bdc5dfc4ad2ec7a81cb30fb

Description

SCREENSHOT

SCREENSHOT

******************************Thumbnail:**********************

SCREENSHOT

******************************Screenshots:********************

Screenshot 1

Screenshot 2

Screenshot 3

Screenshot 4

Screenshot 5

Screenshot 6

Screenshot 7

Screenshot 8

Screenshot 9

Screenshot 0

**************************************************************

Complete name : 18+.Escorts.2015.480p.WEBRip.English.AAC.LLG.mp4
Format : MPEG-4
Format profile : Base Media
Codec ID : isom (isom/iso2/avc1/mp41)
File size : 342 MiB
Duration : 46 min 26 s
Overall bit rate : 1 028 kb/s
Writing application : Lavf57.56.101

Video
ID : 1
Format : AVC
Format/Info : Advanced Video Codec
Format profile : [email protected]
Format settings : CABAC / 4 Ref Frames
Format settings, CABAC : Yes
Format settings, RefFrames : 4 frames
Codec ID : avc1
Codec ID/Info : Advanced Video Coding
Duration : 46 min 26 s
Bit rate : 900 kb/s
Width : 720 pixels
Height : 404 pixels
Display aspect ratio : 16:9
Frame rate mode : Constant
Frame rate : 29.970 (29970/1000) FPS
Color space : YUV
Chroma subsampling : 4:2:0
Bit depth : 8 bits
Scan type : Progressive
Bits/(Pixel*Frame) : 0.103
Stream size : 296 MiB (87%)

Audio
ID : 2
Format : AAC
Format/Info : Advanced Audio Codec
Format profile : LC
Codec ID : mp4a-40-2
Duration : 46 min 26 s
Bit rate mode : Constant
Bit rate : 129 kb/s
Channel(s) : 2 channels
Channel positions : Front: L R
Sampling rate : 48.0 kHz
Frame rate : 46.875 FPS (1024 SPF)
Compression mode : Lossy
Stream size : 42.7 MiB (13%)
Default : Yes
Alternate group : 1

Trackers

Refresh Leechers : Updated June 19, 2018

1. udp://tracker.openbittorrent.com:80/announce

2. udp://tracker.opentrackr.org:1337/announce

3. UDP://TRACKER.LEECHERS-PARADISE.ORG:6969/ANNOUNCE

Comments

You must log in to add a comment.

Embed Code

Sharing Widget

Related torrents

FILENAME SIZE SEEDS PEERS ADDED UPD
[i] 18+ Escorts (2015) WEBRip 480p English 250MB MP4
posted by shilpa143 in Movies - Documentary
245 MB 10 1 3 months 1 week

Top Movies ( auto generated report )

FILENAME SIZE SEEDS PEERS ADDED UPD
[i] Overboard (2018) [WEBRip] [720p] [YTS AM] 950.69 MB 4553 1748 4 days 1 day
[i] How It Ends (2018) [WEBRip] [720p] [YTS AM] 970.57 MB 2855 1125 4 days 12 hours
[i] Overboard (2018) [WEBRip] [1080p] [YTS AM] (1) 1.79 GB 2987 1164 4 days 3 days
[i] Siberia (2018) [WEBRip] [720p] [YTS AM] 891.58 MB 2776 1456 4 days 3 days
[i] Furious (2017) [BluRay] [720p] [YTS AM] 1018.36 MB 2730 859 4 days 2 days
[i] How It Ends (2018) [WEBRip] [1080p] [YTS AM] 1.82 GB 2685 1386 4 days 3 days
[i] Furious (2017) [BluRay] [1080p] [YTS AM] 1.9 GB 2622 1258 4 days 3 days
[i] Siberia (2018) [WEBRip] [1080p] [YTS AM] 1.67 GB 1989 917 4 days 3 days
[i] 7 Splinters in Time (2018) [WEBRip] [720p] [YTS AM] 653.09 MB 1218 446 4 days 3 days
[i] Tango One (2018) [BluRay] [720p] [YTS AM] 967.28 MB 1073 689 1 day 22 hours